Details for this torrent 


Type SE
Magnet link Uploaded Today 13.29, ULed by piratebay HIDE MY IP NOW
MythBusters S08E03 hdtv.XviD-XAX
Type:
Video > TV shows
Files:
2
Size:
417.34 MiB (437608726 Bytes)
Spoken language(s):
English
Texted language(s):
English
Uploaded:
2010-04-13 00:16:28 GMT
By:
Anonymous
Seeders:
0
Leechers:
0
Comments
1  

Info Hash:
4D05FEA6EF5446305F8F01DC90EE2B9AAE3C461F







(Problems with magnets links are fixed by upgrading your torrent client!)
GeneralFormat                           : MatroskaFile size                        : 417 MiBDuration                         : 43mn 32sOverall bit rate                 : 1 340 KbpsEncoded date                     : UTC 2010-04-12 21:58:47Writing application              : mkvmerge v3.2.0 ('Beginnings') built on Feb 12 2010 16:46:17Writing library                  : libebml v0.7.9 + libmatroska v0.8.1========================VideoID                               : 1Format                           : MPEG-4 VisualFormat profile                   : Advanced [email protected] settings, BVOP            : NoFormat settings, QPel            : NoFormat settings, GMC             : No warppointsFormat settings, Matrix          : Default (MPEG)Codec ID                         : XVIDCodec ID/Hint                    : XviDDuration                         : 43mn 32sBit rate                         : 1 186 KbpsWidth                            : 624 pixelsHeight                           : 352 pixelsDisplay aspect ratio             : 16:9Frame rate                       : 29.970 fpsResolution                       : 8 bitsColorimetry                      : 4:2:0Scan type                        : ProgressiveBits/(Pixel*Frame)               : 0.180Stream size                      : 369 MiB (88%)Writing library                  : XviD 1.1.2 (UTC 2006-11-01)========================AudioID                               : 2Format                           : MPEG AudioFormat version                   : Version 1Format profile                   : Layer 3Codec ID                         : A_MPEG/L3Codec ID/Hint                    : MP3Duration                         : 43mn 32sBit rate mode                    : ConstantBit rate                         : 128 KbpsChannel(s)                       : 2 channelsSampling rate                    : 44.1 KHzStream size                      : 39.9 MiB (10%)Writing library                  : LAMELAME_MAJOR_VERSI




Comments

yay karis back
Type SE
Magnet link Uploaded Today 13.29, ULed by piratebay HIDE MY IP NOW

Bitcoin (BTC Only) : 1z8Tep4BNS79W3kYH8CHA8tWj6nuHYcCM
TRON (TRX Only) : 0x705c127743410c23f69e3f56ac0a654879181c41

The Pirate bay proxy List
Pirate bay proxy list